[Login] or [Signup]
Login
Username:
Password:
[Signup]
[Recover Account]


Poll


You must be logged in to view polls



Torrent Details For "Juliet Naked 2018 1080p BluRay x264 DTS [MW]"

Juliet Naked 2018 1080p BluRay x264 DTS [MW]

Download this torrent | Magnet Download
Health:
Seeds: 8
Leechers: 46
Completed:
Last Checked: 30-11-2018 16:47:32
External Torrent
Update Stats
Download Magnet


Poster
No poster


Watch-Free-HD     Download

Details
Name:Juliet Naked 2018 1080p BluRay x264 DTS [MW]
Description:

 


General
Format                                   : Matroska
Format version                           : Version 4 / Version 2
File size                                : 2.55 GiB
Duration                                 : 1 h 37 min
Overall bit rate                         : 3 741 kb/s

Video
ID                                       : 1
Format                                   : AVC
Format/Info                              : Advanced Video Codec
Format profile                           : [email protected]
Format settings                          : CABAC / 4 Ref Frames
Format settings, CABAC                   : Yes
Format settings, RefFrames               : 4 frames
Codec ID                                 : V_MPEG4/ISO/AVC
Duration                                 : 1 h 37 min
Bit rate                                 : 3 000 kb/s
Width                                    : 1 920 pixels
Height                                   : 804 pixels
Display aspect ratio                     : 2.40:1
Frame rate mode                          : Constant
Frame rate                               : 23.976 (24000/1001) FPS
Color space                              : YUV
Chroma subsampling                       : 4:2:0
Bit depth                                : 8 bits
Scan type                                : Progressive
Bits/(Pixel*Frame)                       : 0.081
Stream size                              : 2.02 GiB (79%)
Writing library                          : x264 core 155 r2901 7d0ff22
Default                                  : Yes
Forced                                   : No

Audio
ID                                       : 2
Format                                   : DTS
Format/Info                              : Digital Theater Systems
Codec ID                                 : A_DTS
Duration                                 : 1 h 37 min
Bit rate mode                            : Constant
Bit rate                                 : 756 kb/s
Channel(s)                               : 6 channels
Channel positions                        : Front: L C R, Side: L R, LFE
Sampling rate                            : 48.0 kHz
Frame rate                               : 93.750 FPS (512 SPF)
Bit depth                                : 16 bits
Compression mode                         : Lossy
Stream size                              : 528 MiB (20%)
Language                                 : English
Default                                  : Yes
Forced                                   : No

Text #1
ID                                       : 3
Format                                   : UTF-8
Codec ID                                 : S_TEXT/UTF8
Codec ID/Info                            : UTF-8 Plain Text
Duration                                 : 1 h 32 min
Bit rate                                 : 89 b/s
Count of elements                        : 1619
Stream size                              : 60.8 KiB (0%)
Language                                 : English
Default                                  : Yes
Forced                                   : No

Text #2
ID                                       : 4
Format                                   : VobSub
Muxing mode                              : zlib
Codec ID                                 : S_VOBSUB
Codec ID/Info                            : Picture based subtitle format used on DVDs
Duration                                 : 1 h 32 min
Bit rate                                 : 8 646 b/s
Count of elements                        : 1619
Stream size                              : 5.72 MiB (0%)
Language                                 : English
Default                                  : No
Forced                                   : No

Menu
00:00:00.000                             : en:00:00:00.000
00:06:39.482                             : en:00:06:39.482
00:12:06.559                             : en:00:12:06.559
00:19:18.532                             : en:00:19:18.532
00:24:23.754                             : en:00:24:23.754
00:30:53.560                             : en:00:30:53.560
00:36:09.167                             : en:00:36:09.167
00:42:20.246                             : en:00:42:20.246
00:48:10.012                             : en:00:48:10.012
00:54:03.699                             : en:00:54:03.699
00:59:37.699                             : en:00:59:37.699
01:06:02.041                             : en:01:06:02.041
01:12:52.117                             : en:01:12:52.117
01:20:53.181                             : en:01:20:53.181
01:24:25.727                             : en:01:24:25.727
01:29:59.519                             : en:01:29:59.519


Click To View Image

 http://pichub.site/image/cgIeT
 http://pichub.site/image/cga2V
 http://pichub.site/image/cgRkN
 http://pichub.site/image/cgSxD
 http://pichub.site/image/cgDHZ
 http://pichub.site/image/cgdDg

Category:Movies > 1080P Bluray
Lang:English  English
Total Size:2.55 GB
Info Hash:fdf057c776532822596d2e549cad2010a21d7eac
Added By:Freaky
Date Added:30-11-2018 16:46:50
Views:339
Hits:4

Download Torrent

Ratings:Not Yet Rated (Log in to rate it)


Tracker:
udp://tracker.coppersurfer.tk:6969/announce


File List: 


Comments

No comments still posted

Powered by 10 Hamsters v2-svn -|- Page Generated In 0.151047 secs.
-|- RSS FEED
Theme By: Nikkbu