[Login] or [Signup]
Login
Username:
Password:
[Signup]
[Recover Account]


Poll


You must be logged in to view polls



Torrent Details For "Mohabbat Mein Jung (Nanna Ninna Prema Kathe) (2018) 720p Hindi Dubbed WEBHD x264 AAC 700MB [Mov..."

Mohabbat Mein Jung (Nanna Ninna Prema Kathe) (2018) 720p Hindi Dubbed WEBHD x264 AAC 700MB [Mov...

Download this torrent | Magnet Download
Health:
Seeds: 611
Leechers: 50
Completed: 7,808 
Last Checked: 10-12-2018 15:41:17
External Torrent
Update Stats
Download Magnet


Poster


iMDB
Imdb Picture Title: Nanna Ninna Prema Kathe
Year: 2016
Runtime: 141 minutes
Language: Kannada
Country: India
All Genres: Drama, Romance
Tagline: Preethigaagi Neenu...Preethiyade Neenu...Preethitae Neenu...
Director: Jamakhandi Shivu
Writing By: Jamakhandi Shivu,Jamakhandi Shivu,Jamakhandi Shivu,
Produced By: Dhananjay H.,Joker Hanumanthu,Anand S. Nyamagouda,
Music: Jamakhandi Shivu
Cast:
Vijay Raghavendra as
Nidhi Subbaiah as
Thilak Shekar as
Chikkanna as
Sangeetha as
Gururaj Hoskote as
Sudha Belawadi as
Joker Hanumanthu as


Watch-Free-HD     Download

Details
Name:Mohabbat Mein Jung (Nanna Ninna Prema Kathe) (2018) 720p Hindi Dubbed WEBHD x264 AAC 700MB [Mov...
Description:
Our Site   www.movcr.cc


Mohabbat Mein Jung (Nanna Ninna Prema Kathe) (2018) 720p Hindi Dubbed WEBHD x264 AAC 700MB [MovCr]



 http://www.imdb.com/title/tt5813104/

 


General
Unique ID                                : 45709894066521842631177039520003545796 (0x226367C692EF8AFDAC6FE9FF2FC05AC4)
Complete name                            : www.MovCr.cc - Mohabbat Mein Jung (Nanna Ninna Prema Kathe) (2018) 720p Hindi Dubbed WEBHD x264 AAC 700MB [MovCr].mkv
Format                                   : Matroska
Format version                           : Version 4 / Version 2
File size                                : 696 MiB
Duration                                 : 1 h 54 min
Overall bit rate                         : 847 kb/s
Movie name                               : www.MovCr.cc
Encoded date                             : UTC 2018-12-05 04:29:31
Writing application                      : mkvmerge v26.0.0 ('In The Game') 64-bit
Writing library                          : libebml v1.3.6 + libmatroska v1.4.9

Video
ID                                       : 1
Format                                   : AVC
Format/Info                              : Advanced Video Codec
Format profile                           : [email protected]
Format settings                          : CABAC / 3 Ref Frames
Format settings, CABAC                   : Yes
Format settings, RefFrames               : 3 frames
Codec ID                                 : V_MPEG4/ISO/AVC
Duration                                 : 1 h 54 min
Bit rate                                 : 716 kb/s
Width                                    : 1 280 pixels
Height                                   : 720 pixels
Display aspect ratio                     : 16:9
Frame rate mode                          : Constant
Frame rate                               : 25.000 FPS
Color space                              : YUV
Chroma subsampling                       : 4:2:0
Bit depth                                : 8 bits
Scan type                                : Progressive
Bits/(Pixel*Frame)                       : 0.031
Stream size                              : 589 MiB (85%)
Title                                    : www.MovCr.cc
Language                                 : Hindi
Default                                  : Yes
Forced                                   : No
Color range                              : Limited
Color primaries                          : BT.709
Transfer characteristics                 : BT.709
Matrix coefficients                      : BT.709

Audio
ID                                       : 2
Format                                   : AAC
Format/Info                              : Advanced Audio Codec
Format profile                           : LC
Codec ID                                 : A_AAC-2
Duration                                 : 1 h 54 min
Bit rate                                 : 128 kb/s
Channel(s)                               : 2 channels
Channel positions                        : Front: L R
Sampling rate                            : 44.1 kHz
Frame rate                               : 43.066 FPS (1024 SPF)
Compression mode                         : Lossy
Stream size                              : 105 MiB (15%)
Title                                    : www.MovCr.cc
Language                                 : Hindi
Default                                  : Yes
Forced                                   : No



 
 
 
 
 
 
 
 
Category:Movies > South Dub
Lang:Hindi
Total Size:696.22 MB
Info Hash:772abec46616d6c5366ced3a483f7ec3bac79929
Added By:MAZE
Date Added:05-12-2018 04:36:54
Views:1,153
Hits:57

Download Torrent

Ratings:Not Yet Rated (Log in to rate it)


Tracker:
udp://tracker.coppersurfer.tk:6969/announce


File List: 


Comments

No comments still posted

Powered by 10 Hamsters v2-svn -|- Page Generated In 0.801580 secs.
-|- RSS FEED
Theme By: Nikkbu